<?xml version="1.0" standalone="no"?>
<!DOCTYPE svg PUBLIC "-//W3C//DTD SVG 1.1//EN" "http://www.w3.org/Graphics/SVG/1.1/DTD/svg11.dtd" >
<svg xmlns="http://www.w3.org/2000/svg">
<metadata>Generated by IcoMoon</metadata>
<defs>
<font id="icomoon" horiz-adv-x="1024">
<font-face units-per-em="1024" ascent="960" descent="-64" />
<missing-glyph horiz-adv-x="1024" />
<glyph unicode="&#x20;" horiz-adv-x="512" d="" />
<glyph unicode="&#xe900;" glyph-name="arrowup" d="M512 739.915c-0.028 0-0.044 0-0.074 0-19.805 0-37.727-8.033-50.686-21.021l-440.982-440.982c-12.522-12.915-20.25-30.547-20.25-49.989 0-39.668 32.155-71.838 71.838-71.838 19.443 0 37.074 7.727 50.001 20.26l390.155 390.209 390.179-390.179c12.915-12.522 30.547-20.25 49.989-20.25 39.668 0 71.838 32.155 71.838 71.838 0 19.443-7.727 37.074-20.26 50.001l-440.97 440.97c-12.963 12.959-30.876 20.981-50.657 20.981-0.036 0-0.072 0-0.108 0h0.003z" />
<glyph unicode="&#xe901;" glyph-name="arrowdown" d="M512 156.085c-0.028 0-0.044 0-0.074 0-19.805 0-37.727 8.033-50.686 21.021l-440.982 440.982c-12.522 12.915-20.25 30.547-20.25 49.989 0 39.668 32.155 71.838 71.838 71.838 19.443 0 37.074-7.727 50.001-20.26l390.155-390.209 390.179 390.179c12.915 12.522 30.547 20.25 49.989 20.25 39.668 0 71.838-32.155 71.838-71.838 0-19.443-7.727-37.074-20.26-50.001l-440.97-440.97c-12.963-12.959-30.876-20.981-50.657-20.981-0.036 0-0.072 0-0.108 0h0.003z" />
<glyph unicode="&#xe902;" glyph-name="arrowleft" horiz-adv-x="584" d="M0 448c0 0.023 0 0.049 0 0.076 0 19.77 8.023 37.667 20.991 50.611l440.321 440.321c12.894 12.507 30.503 20.217 49.913 20.217 39.611 0 71.723-32.111 71.723-71.723 0-19.41-7.71-37.019-20.235-49.931l-389.614-389.571 389.589-389.589c12.507-12.894 20.217-30.503 20.217-49.913 0-39.611-32.111-71.723-71.723-71.723-19.41 0-37.019 7.71-49.931 20.235l-440.302 440.302c-12.944 12.948-20.949 30.832-20.949 50.587 0 0.035 0 0.071 0 0.106v-0.005z" />
<glyph unicode="&#xe903;" glyph-name="arrowright" horiz-adv-x="584" d="M583.723 448c0-0.023 0-0.049 0-0.076 0-19.77-8.023-37.667-20.991-50.611l-440.321-440.321c-13.053-13.458-31.304-21.81-51.506-21.81-39.611 0-71.723 32.111-71.723 71.723 0 20.202 8.352 38.452 21.791 51.488l389.65 389.607-389.589 389.589c-12.507 12.894-20.217 30.503-20.217 49.913 0 39.611 32.111 71.723 71.723 71.723 19.41 0 37.019-7.71 49.931-20.235l440.302-440.302c12.944-12.948 20.949-30.832 20.949-50.587 0-0.035 0-0.071 0-0.106v0.005z" />
<glyph unicode="&#xe904;" glyph-name="calendar" horiz-adv-x="960" d="M320.022 576h128v-128h-128v128zM512 576h128v-128h-128v128zM704.022 576h128v-128h-128v128zM128 383.978h128v-128h-128v128zM320.022 383.978h128v-128h-128v128zM512 383.978h128v-128h-128v128zM704.022 383.978h128v-128h-128v128zM128 192h128v-128h-128v128zM320.022 192h128v-128h-128v128zM512 192h128v-128h-128v128zM832.022 832v96.011c-0.025 17.672-14.357 31.989-32.033 31.989 0 0 0 0 0 0h-128c-17.657-0.025-31.964-14.332-31.989-31.987v-95.882h-319.978v95.88c-0.025 17.672-14.357 31.989-32.033 31.989 0 0 0 0 0 0h-128c-17.657-0.025-31.964-14.332-31.989-31.987v-95.882h-128v-896.305h960.022v896.174zM704.022 895.978h64.022v-128h-64.022zM192.022 895.978h64.022v-128h-64.022zM896-0.022h-831.978v640h831.978z" />
<glyph unicode="&#xe905;" glyph-name="car" horiz-adv-x="1564" d="M1467.507 633.074c-1.051 1.303-2.093 2.468-3.19 3.578l0.004-0.004-54.803 52.909c45.461 10.332 94.41 48.389 94.41 87.479 0 45.547-63.198 61.691-117.097 61.691-56.396 0-62.94-38.745-63.586-65.953l-141.507 136.384c-32.922 29.642-76.048 48.527-123.527 50.825l-0.459 0.018h-551.047c-47.936-2.323-91.060-21.206-124.167-51.003l0.181 0.16-141.636-136.341c-0.732 27.294-7.276 65.953-63.586 65.953-53.985 0-117.141-16.144-117.141-61.691 0-39.090 48.992-77.19 94.453-87.479l-54.631-52.952c-1.248-1.162-2.109-2.368-3.186-3.573-56.687-53.134-93.157-127.247-96.968-209.884l-0.025-0.676v-200.486c0.030-48.765 19.141-93.061 50.271-125.829l-0.074 0.079v-77.749c0.748-45.741 38.003-82.534 83.852-82.534 0.352 0 0.703 0.002 1.054 0.006l-0.053-0.001h102.632c0.323-0.004 0.704-0.007 1.085-0.007 45.832 0 83.068 36.804 83.766 82.469l0.001 0.066v19.889h919.387v-19.889c0.699-45.731 37.935-82.535 83.767-82.535 0.382 0 0.763 0.003 1.143 0.008l-0.058-0.001h102.503c0.323-0.004 0.704-0.007 1.085-0.007 45.832 0 83.068 36.804 83.766 82.469l0.001 0.066v77.749c31.067 32.683 50.182 76.983 50.197 125.748v200.489c-3.744 83.3-40.165 157.426-96.655 210.406l-0.166 0.154zM434.81 848.585c19.875 15.633 44.476 26.124 71.346 29.088l0.635 0.057h551.047c27.504-3.021 52.106-13.512 72.285-29.376l-0.304 0.231 185.462-179.779h-1066.060zM63.629 452.822c-0.008 0.44-0.012 0.959-0.012 1.479 0 48.004 38.458 87.026 86.244 87.936l0.085 0.001c47.657 0 203.457-91.439 203.457-140.818s-155.8-37.928-203.457-37.928c-47.852 0.816-86.33 39.798-86.33 87.768 0 0.549 0.005 1.097 0.015 1.644l-0.001-0.082zM322.535 126.326h-130.443c-22.775 6.431-42.653 16.313-60.182 29.205l0.514-0.361c-6.141 4.765-11.457 10.163-15.988 16.186l-0.156 0.217c-3.647 4.764-6.713 10.242-8.937 16.132l-0.146 0.442c-1.698 5.968-2.674 12.823-2.674 19.905 0 17.358 5.864 33.347 15.718 46.093l-0.129-0.174h166.519l110.984-127.387zM1021.589 126.326h-478.722c-49.93 0-90.406 40.476-90.406 90.406v0h659.577c0-0.026 0-0.056 0-0.086 0-49.93-40.476-90.406-90.406-90.406v0zM1042.598 278.424h-520.911c-54.287 0-98.327 66.944-98.327 149.471h717.48c0-82.657-43.912-149.687-98.198-149.687zM1457.261 188.018c-2.381-6.316-5.445-11.779-9.198-16.687l0.114 0.156c-4.669-6.254-9.988-11.654-15.952-16.26l-0.192-0.143c-17.006-12.565-36.89-22.452-58.373-28.531l-1.295-0.313h-205.695l111.070 127.387h166.433c9.832-12.594 15.765-28.648 15.765-46.088 0-7.021-0.962-13.818-2.76-20.266l0.126 0.529zM1414.468 363.621c-47.657 0-203.414-11.365-203.414 37.928s155.8 140.818 203.414 140.818c48.175-1.542 86.642-40.965 86.642-89.373s-38.467-87.831-86.5-89.369l-0.141-0.004z" />
<glyph unicode="&#xe906;" glyph-name="chair" horiz-adv-x="825" d="M803.033 934.059c-14.986 15.985-36.235 25.945-59.81 25.945-0.294 0-0.588-0.002-0.882-0.005h-64.514c-49.882-1.561-91.016-37.163-101.031-84.272l-0.124-0.697-4.091-23.153c-0.933-4.431-1.467-9.522-1.467-14.738 0-18.069 6.41-34.64 17.079-47.565l-0.102 0.127c13.792-15.99 34.079-26.050 56.716-26.050 0.608 0 1.214 0.007 1.819 0.022l-0.090-0.002h83.396c11.944 0.044 23.326 2.402 33.737 6.647l-0.603-0.218-8.992-75.709c-8.104 3.469-17.534 5.485-27.435 5.485-0.107 0-0.214 0-0.321-0.001h-94.799c-43.132-1.523-78.86-31.483-89.098-71.632l-0.143-0.66-84.116-396.526-396.841 28.503c-2.103 0.278-4.534 0.437-7.002 0.437-17.437 0-33.025-7.916-43.366-20.351l-0.074-0.092c-6.881-9.358-11.011-21.109-11.011-33.824 0-5.944 0.903-11.677 2.578-17.070l-0.109 0.407 46.127-181.674c12.215-40.418 48.35-69.653 91.565-71.387l0.194-0.006h507.122c42.404 0.883 77.105 32.73 82.452 73.798l0.045 0.427 65.054 613.717c0.238 2.227 0.374 4.81 0.374 7.424 0 1.041-0.022 2.077-0.064 3.108l0.005-0.147 22.479 190.306c3.024 7.62 5.076 16.444 5.738 25.652l0.017 0.289 1.484 21.175c0.156 1.893 0.244 4.097 0.244 6.322 0 21.677-8.425 41.387-22.179 56.033l0.040-0.043z" />
<glyph unicode="&#xe907;" glyph-name="check" horiz-adv-x="1271" d="M1076.934 960l-635.6-635.469-247.069 247.112-194.265-194.353 441.334-441.291 829.865 829.735z" />
<glyph unicode="&#xe908;" glyph-name="comments" horiz-adv-x="1303" d="M718.093 311.19c69.727 27.971 128.256 71.176 173.579 125.741l0.57 0.706c39.697 46.765 63.838 107.82 63.838 174.513s-24.141 127.748-64.16 174.903l0.322-0.39c-45.88 55.35-104.409 98.624-171.255 125.629l-2.894 1.033c-69.284 29.559-149.889 46.742-234.508 46.742-1.949 0-3.895-0.009-5.84-0.027l0.298 0.002c-1.798 0.019-3.921 0.030-6.047 0.030-84.427 0-164.858-17.106-238.017-48.040l4.015 1.507c-69.74-28.038-128.269-71.312-173.574-125.948l-0.575-0.714c-39.444-46.904-63.518-107.877-63.845-174.464v-0.071c0.196-56.973 18.218-109.698 48.776-152.933l-0.561 0.836c34.664-49.553 78.961-89.951 130.435-119.17l1.965-1.027q-6.766-16.314-13.917-29.974c-5.343-9.945-11.022-18.494-17.393-26.464l0.265 0.343q-9.849-12.589-15.287-19.697t-17.642-20.040q-12.247-12.846-15.629-17.128c0 0.471-0.899-0.557-2.698-3.040s-2.826-3.597-3.040-3.383-1.113-0.899-2.698-3.383l-2.398-3.725-1.713-3.383c-0.643-1.241-1.122-2.681-1.36-4.202l-0.010-0.080c-0.218-1.278-0.343-2.75-0.343-4.251 0-0.011 0-0.022 0-0.032v0.002c0.001-1.531 0.252-3.004 0.713-4.379l-0.028 0.097c0.779-5.752 3.629-10.724 7.761-14.232l0.032-0.027c3.685-3.302 8.553-5.349 13.898-5.438h2.202c23.098 3.084 42.905 6.892 62.318 11.695l-3.911-0.819c71.912 18.587 134.929 48.489 190.543 88.108l-1.749-1.184c35.873-6.808 77.192-10.761 119.413-10.876h0.098c1.739-0.018 3.795-0.028 5.852-0.028 84.505 0 165.003 17.153 238.203 48.167l-4.006-1.507zM338.279 367.884l-29.974-21.025q-19.012-12.846-42.092-26.506l23.765 57.036-65.857 38.024c-40.535 22.761-74.318 52.839-100.614 88.745l-0.613 0.878c-22.027 29.661-35.446 66.867-35.968 107.184l-0.001 0.123c0.944 50.418 21.079 95.958 53.381 129.776l-0.070-0.074c38.718 42.018 86.854 74.754 141.102 94.926l2.517 0.82c56.381 22.371 121.705 35.343 190.059 35.343 1.453 0 2.904-0.006 4.353-0.018l-0.223 0.001c1.228 0.010 2.678 0.016 4.131 0.016 68.354 0 133.678-12.972 193.645-36.587l-3.587 1.245c56.765-20.992 104.901-53.728 143.388-95.493l0.23-0.253c32.945-33.307 53.297-79.128 53.297-129.702s-20.352-96.395-53.313-129.719l0.016 0.017c-38.707-42.013-86.828-74.748-141.059-94.925l-2.517-0.82c-56.373-22.371-121.689-35.343-190.035-35.343-1.461 0-2.92 0.006-4.378 0.018l0.224-0.001c-36.782 0.093-72.695 3.548-107.527 10.074l3.645-0.568zM1254.972 218.356c30.155 42.445 48.207 95.324 48.207 152.418 0 58.724-19.097 112.988-51.42 156.92l0.515-0.734c-36.364 50.221-82.718 90.936-136.381 119.827l-2.142 1.054c9.88-30.853 15.575-66.344 15.575-103.165 0-63.435-16.902-122.922-46.449-174.204l0.899 1.693c-33.451-57.653-77.147-105.681-129.038-143.037l-1.349-0.924c-51.315-37.134-110.904-67.029-175.030-86.499l-4.258-1.111c-62.009-19.402-133.308-30.578-207.218-30.578-0.915 0-1.829 0.002-2.743 0.005h0.142q-20.382 0-59.948 2.698c86.911-56.304 193.161-89.777 307.229-89.777 4.67 0 9.326 0.056 13.969 0.168l-0.69-0.013c42.32 0.117 83.638 4.069 123.725 11.528l-4.214-0.651c69.378-50.498 153.3-85.3 244.378-97.497l2.78-0.304c0.522-0.047 1.129-0.074 1.742-0.074 5.045 0 9.664 1.825 13.232 4.852l-0.030-0.024c4.508 3.704 7.685 8.881 8.797 14.788l0.024 0.156c0 2.74 0 4.282 0.685 4.282s0.557 1.713-0.343 4.282l-1.37 4.282-1.713 3.383c-0.795 1.434-1.589 2.652-2.458 3.809l0.060-0.084c-0.871 1.263-1.757 2.367-2.716 3.403l0.018-0.020c-0.685 0.685-1.67 1.798-3.040 3.383s-2.269 2.612-2.698 3.040q-3.383 4.282-15.629 17.128t-17.642 20.040q-5.438 7.151-15.287 19.697c-6.11 7.638-11.788 16.201-16.678 25.253l-0.45 0.911q-7.108 13.574-13.917 29.974c53.562 30.114 98.002 70.355 132.034 118.478l0.836 1.247z" />
<glyph unicode="&#xe909;" glyph-name="dashboard" horiz-adv-x="1486" d="M1268.183 742.456c-134.435 134.417-320.147 217.555-525.277 217.555-410.296 0-742.906-332.61-742.906-742.906 0-0.004 0-0.007 0-0.011v0c0-0.307-0.001-0.67-0.001-1.034 0-90.048 16.076-176.341 45.515-256.166l-1.656 5.131c6.027-17.556 22.394-29.949 41.656-29.949 24.269 0 43.944 19.674 43.944 43.944 0 5.698-1.085 11.143-3.058 16.139l0.104-0.298c-19.526 52.47-32.735 113.193-36.894 176.389l-0.102 1.943h134.899c23.673 0.761 42.575 20.134 42.575 43.922s-18.902 43.162-42.505 43.92l-0.070 0.002h-134.899c6.109 90.157 29.677 173.49 67.341 248.524l-1.703-3.745 116.785-67.514c5.987-3.257 13.111-5.172 20.682-5.172 24.269 0 43.944 19.674 43.944 43.944 0 15.668-8.2 29.422-20.543 37.202l-0.182 0.107-116.785 67.428c48.337 71.143 107.869 130.676 176.719 177.539l2.295 1.474 67.428-116.785c7.752-13.24 21.906-21.992 38.104-21.992 24.304 0 44.007 19.702 44.007 44.007 0 8.106-2.192 15.7-6.015 22.222l0.112-0.207-67.514 116.913c71.301 35.973 154.65 59.544 242.825 65.53l1.998 0.109v-135.027c0.761-23.673 20.134-42.575 43.922-42.575s43.162 18.902 43.92 42.505l0.002 0.070v135.027c90.1-6.132 173.371-29.698 248.354-67.341l-3.745 1.703-67.386-116.913c-4.622-6.849-7.377-15.288-7.377-24.371 0-24.269 19.674-43.944 43.944-43.944 17.137 0 31.983 9.81 39.229 24.12l0.115 0.251 67.428 116.828c71.149-48.331 130.684-107.865 177.541-176.72l1.473-2.294-116.785-67.428c-13.76-7.604-22.923-22.027-22.923-38.59 0-24.269 19.674-43.944 43.944-43.944 8.479 0 16.397 2.401 23.111 6.561l116.725 67.363c35.958-71.276 59.527-154.593 65.529-242.733l0.109-2.004h-134.772c-0.408 0.014-0.887 0.021-1.368 0.021-24.269 0-43.944-19.674-43.944-43.944s19.674-43.944 43.944-43.944c0.481 0 0.961 0.008 1.438 0.023l-0.070-0.002h135.070c-4.082-61.686-16.155-119.198-35.234-173.408l1.392 4.538c-1.328-4.005-2.095-8.616-2.095-13.406 0-24.269 19.674-43.944 43.944-43.944 18.847 0 34.922 11.865 41.165 28.532l0.1 0.303c25.384 71.792 40.050 154.584 40.050 240.801 0 205.271-83.138 391.125-217.58 525.725l0.007-0.007zM989.348 526.191l-126.631-136.391c24.27-17.256 44.306-38.774 59.394-63.628l0.533-0.945 131.106 141.293c6.46 7.602 10.39 17.53 10.39 28.376 0 24.269-19.674 43.944-43.944 43.944-12.023 0-22.919-4.829-30.853-12.653l0.005 0.005zM741.201 340.485c-68.265 0-123.605-55.34-123.605-123.605s55.34-123.605 123.605-123.605c68.265 0 123.605 55.34 123.605 123.605v0c0 68.265-55.34 123.605-123.605 123.605v0z" />
<glyph unicode="&#xe90a;" glyph-name="drop" horiz-adv-x="737" d="M463.189 847.104c-23.637 34.773-44.501 66.773-64 96-3.030 4.407-6.729 8.106-10.993 11.043l-0.143 0.093c-5.492 3.529-12.195 5.626-19.388 5.626-12.853 0-24.142-6.694-30.572-16.786l-0.087-0.147c-18.091-29.227-38.955-59.733-64-96-109.909-161.365-274.048-404.779-274.048-543.872 0.063-101.757 41.536-193.815 108.478-260.244l0.023-0.023c66.897-66.033 158.791-106.882 260.226-107.093h0.041c203.153 1.036 367.561 165.445 368.597 368.498v0.099c-0.085 139.435-164.224 381.44-274.133 542.805zM578.645 94.592c-53.26-53.179-126.794-86.066-208.010-86.066-0.716 0-1.432 0.003-2.148 0.008l0.11-0.001c-81.866 0.131-156.025 33.024-210.086 86.266l0.038-0.037c-53.28 53.277-86.235 126.88-86.235 208.18 0 0.657 0.002 1.313 0.006 1.969l-0.001-0.101c0 116.864 157.184 349.141 261.504 503.467 12.501 18.091 23.637 36.181 34.773 51.456 11.136-15.317 22.272-33.365 34.773-51.456 104.32-155.776 261.504-386.688 261.504-503.467-0.070-81.944-32.975-156.188-86.266-210.299l0.037 0.037zM584.235 329.643c-0.582 0.034-1.263 0.053-1.948 0.053-18.908 0-34.379-14.712-35.593-33.313l-0.006-0.106c-1.664-31.613-11.273-60.671-26.85-85.619l0.439 0.755c-15.734-25.778-37.379-46.521-63.13-60.743l-0.87-0.441c-11.227-6.435-18.669-18.348-18.669-32 0-20.302 16.458-36.76 36.76-36.76 6.65 0 12.888 1.766 18.27 4.854l-0.179-0.095c36.966 20.919 67.034 50.1 88.401 85.166l0.602 1.063c21.623 33.929 34.933 75.022 36.174 119.135l0.007 0.332c0.040 0.632 0.063 1.371 0.063 2.116 0 18.926-14.74 34.41-33.367 35.596l-0.104 0.005z" />
<glyph unicode="&#xe90b;" glyph-name="facebook" horiz-adv-x="478" d="M103.296 761.685v-140.8h-103.125v-172.416h103.296v-512.427h212.181v512.256h142.379s13.355 82.645 19.797 173.056h-161.365v117.845c4.077 22.566 22.819 39.706 45.839 41.293l0.156 0.009h115.584v179.541h-157.184c-222.805 0-217.557-172.587-217.557-198.357z" />
<glyph unicode="&#xe90c;" glyph-name="grid" d="M0 683.008h276.992v276.992h-276.992zM59.989 900.011h157.013v-157.013h-157.013zM747.008 960v-276.992h276.992v276.992zM964.011 742.997h-157.013v157.013h157.013zM373.504 683.008h276.992v276.992h-276.992zM433.493 900.011h157.013v-157.013h-157.013zM0 309.504h276.992v276.992h-276.992zM59.989 526.507h157.013v-157.013h-157.013zM747.008 309.504h276.992v276.992h-276.992zM806.997 526.507h157.013v-157.013h-157.013zM373.504 309.504h276.992v276.992h-276.992zM433.493 526.507h157.013v-157.013h-157.013zM0-64h276.992v276.992h-276.992zM59.989 153.003h157.013v-157.013h-157.013zM747.008-64h276.992v276.992h-276.992zM806.997 153.003h157.013v-157.013h-157.013zM373.504-64h276.992v276.992h-276.992zM433.493 153.003h157.013v-157.013h-157.013z" />
<glyph unicode="&#xe90d;" glyph-name="info" d="M511.913 960c-282.77 0-512-229.23-512-512s229.23-512 512-512c282.77 0 512 229.23 512 512v0c0 282.77-229.23 512-512 512v0zM618.601 166.548c-26.149-10.416-47.374-18.261-63.15-23.709-15.459-5.265-33.267-8.305-51.785-8.305-0.993 0-1.983 0.009-2.972 0.026l0.149-0.002c-1.974-0.127-4.28-0.199-6.603-0.199-25.738 0-49.404 8.875-68.103 23.732l0.225-0.173c-16.248 13.952-26.477 34.518-26.477 57.472 0 0.648 0.008 1.294 0.024 1.938l-0.002-0.095c0.033 10.113 0.745 20.028 2.092 29.74l-0.131-1.15c1.351 9.632 3.399 20.571 6.319 32.861l33.035 116.451q4.358 16.91 7.409 31.728c1.765 8.213 2.824 17.683 2.919 27.383l0.001 0.073c0.149 1.338 0.234 2.889 0.234 4.459 0 10.108-3.522 19.394-9.407 26.696l0.064-0.082c-8.235 5.664-18.422 9.046-29.399 9.046-2.064 0-4.1-0.12-6.102-0.352l0.244 0.023c-9.333-0.009-18.329-1.442-26.785-4.094l0.635 0.172c-8.716-2.658-16.648-5.099-22.968-7.583l8.716 35.911c21.791 8.716 42.231 16.387 61.93 22.532 16.642 5.823 35.832 9.298 55.8 9.543l0.115 0.001c2.045 0.139 4.432 0.219 6.837 0.219 25.222 0 48.403-8.738 66.681-23.351l-0.213 0.165c15.882-14.067 25.843-34.51 25.843-57.279 0-0.9-0.016-1.796-0.046-2.688l0.004 0.13c0-5.055-0.61-13.99-1.787-26.716-1.166-13.055-3.494-25.045-6.914-36.565l0.333 1.308-32.861-116.102c-2.658-9.37-5.099-19.961-7.235-31.902-1.686-8.025-2.813-17.394-3.131-26.968l-0.007-0.271c-0.184-1.419-0.29-3.061-0.29-4.728 0-10.376 4.078-19.799 10.72-26.754l-0.014 0.015c8.686-5.452 19.244-8.686 30.558-8.686 1.823 0 3.627 0.084 5.408 0.248l-0.229-0.017c9.8 0.248 19.138 1.823 27.97 4.553l-0.731-0.194c8.506 2.182 15.761 4.716 22.731 7.777l-0.94-0.368zM612.761 638.017c-14.583-13.229-34.031-21.326-55.371-21.326s-40.788 8.098-55.44 21.388l0.069-0.062c-14.222 12.774-23.127 31.224-23.127 51.753s8.905 38.979 23.063 51.697l0.064 0.057c14.518 13.383 33.986 21.588 55.371 21.588s40.853-8.206 55.427-21.64l-0.057 0.052c14.122-12.62 22.97-30.888 22.97-51.223 0-0.194-0.001-0.389-0.002-0.582v0.030c0.003-0.244 0.005-0.532 0.005-0.82 0-20.239-8.855-38.409-22.901-50.849l-0.071-0.062z" />
<glyph unicode="&#xe90e;" glyph-name="instagram" d="M767.994 960h-511.988c-140.784 0-255.994-115.21-255.994-255.994v-512.012c0-140.747 115.21-255.994 255.994-255.994h511.988c140.784 0 255.994 115.247 255.994 255.994v512.012c0 140.784-115.21 255.994-255.994 255.994zM938.652 191.994c0-94.078-76.528-170.658-170.658-170.658h-511.988c-94.090 0-170.658 76.581-170.658 170.658v512.012c0 94.103 76.568 170.658 170.658 170.658h511.988c94.13 0 170.658-76.556 170.658-170.658v-512.012zM853.367 725.343c0-35.345-28.653-63.998-63.998-63.998s-63.998 28.653-63.998 63.998c0 35.345 28.653 63.998 63.998 63.998s63.998-28.653 63.998-63.998zM512 704.006c-141.412 0-255.994-114.595-255.994-255.994 0-141.347 114.582-256.019 255.994-256.019 141.372 0 255.994 114.672 255.994 256.019 0 141.399-114.622 255.994-255.994 255.994zM512 277.329c-94.245 0-170.658 76.413-170.658 170.683s76.413 170.658 170.658 170.658 170.658-76.388 170.658-170.658-76.413-170.683-170.658-170.683z" />
<glyph unicode="&#xe90f;" glyph-name="linkedIn" horiz-adv-x="1072" d="M1071.643 332.196v-396.196h-229.689v369.628c0 92.876-33.221 156.281-116.363 156.281-54.238-0.371-100.284-35.038-117.562-83.38l-0.274-0.878c-4.943-14.597-7.796-31.409-7.796-48.887 0-2.499 0.058-4.985 0.174-7.456l-0.013 0.35v-385.881h-229.778s3.081 626.063 0 690.942h229.778v-97.921c-0.447-0.714-1.072-1.518-1.518-2.233h1.518v2.233c40.138 68.839 113.621 114.365 197.737 114.365 3.275 0 6.535-0.069 9.777-0.206l-0.463 0.016c151.146 0.179 264.473-98.547 264.473-310.777zM130.026 960c-3.004 0.268-6.498 0.421-10.028 0.421-66.115 0-119.712-53.597-119.712-119.712s53.597-119.712 119.712-119.712c2.46 0 4.902 0.074 7.325 0.22l-0.333-0.016h1.518c2.986-0.265 6.461-0.416 9.97-0.416 66.139 0 119.756 53.617 119.756 119.756s-53.617 119.756-119.756 119.756c-2.974 0-5.923-0.108-8.843-0.322l0.391 0.023zM13.663-64h229.644v690.942h-229.644z" />
<glyph unicode="&#xe910;" glyph-name="list" horiz-adv-x="768" d="M374.485 566.613c-5.803 5.787-13.812 9.366-22.656 9.366s-16.853-3.578-22.657-9.367l-105.343-105.386-41.344 41.387c-5.793 5.793-13.795 9.376-22.635 9.376-17.679 0-32.010-14.331-32.010-32.010 0-8.839 3.583-16.842 9.376-22.635v0l64-64c5.751-5.823 13.734-9.429 22.56-9.429 0.019 0 0.038 0 0.057 0h-0.003c0.001 0 0.003 0 0.004 0 8.839 0 16.844 3.569 22.653 9.346l127.998 127.998c5.81 5.801 9.405 13.819 9.405 22.677s-3.594 16.877-9.404 22.677v0zM374.485 310.613c-5.803 5.787-13.812 9.366-22.656 9.366s-16.853-3.578-22.657-9.367l-105.343-105.386-41.344 41.344c-5.793 5.793-13.795 9.376-22.635 9.376-17.679 0-32.010-14.331-32.010-32.010 0-8.839 3.583-16.842 9.376-22.635l64-64c5.801-5.775 13.801-9.345 22.635-9.345s16.834 3.57 22.636 9.346l127.999 127.999c5.808 5.794 9.401 13.805 9.401 22.656s-3.593 16.862-9.401 22.655l-0.001 0.001zM608 512h-128c-17.673 0-32-14.327-32-32s14.327-32 32-32v0h128c17.673 0 32 14.327 32 32s-14.327 32-32 32v0zM608 256h-128c-17.673 0-32-14.327-32-32s14.327-32 32-32v0h128c17.673 0 32 14.327 32 32s-14.327 32-32 32v0zM704 832h-128v32c0 17.673-14.327 32-32 32v0h-69.419c-13.613 37.594-49.006 63.972-90.56 63.972s-76.947-26.378-90.348-63.303l-0.212-0.669h-69.461c-17.673 0-32-14.327-32-32v0-32h-128c-35.346 0-64-28.654-64-64v0-768c0-35.346 28.654-64 64-64v0h640c35.346 0 64 28.654 64 64v0 768c0 35.346-28.654 64-64 64v0zM256 832h64c17.673 0 32 14.327 32 32v0c0 17.673 14.327 32 32 32s32-14.327 32-32v0c0-17.673 14.327-32 32-32v0h64v-64h-256zM704 0h-640v768h128v-32c0-17.673 14.327-32 32-32v0h320c17.673 0 32 14.327 32 32v0 32h128z" />
<glyph unicode="&#xe911;" glyph-name="mail" horiz-adv-x="1451" d="M1396.916 960h-1343.15c-29.694 0-53.766-24.072-53.766-53.766v0-916.468c0-29.694 24.072-53.766 53.766-53.766v0h1343.15c29.694 0 53.766 24.072 53.766 53.766v0 916.468c0 29.694-24.072 53.766-53.766 53.766v0zM107.532 804.414l365.254-249.336-365.254-421.242v670.578zM725.341 513.099l-497.357 339.369h994.714zM562.139 494.195l132.783-90.668c8.487-5.845 18.988-9.336 30.306-9.336s21.819 3.491 30.488 9.454l-0.182-0.118 132.783 90.668 390.732-450.663h-1107.46zM977.76 555.214l365.254 249.336v-670.623z" />
<glyph unicode="&#xe912;" glyph-name="marker" horiz-adv-x="742" d="M370.838 960c-204.709-0.248-370.59-166.13-370.838-370.815v-0.024c0-253.777 331.876-626.359 345.997-642.092 6.137-6.816 14.991-11.082 24.842-11.082s18.704 4.266 24.815 11.052l0.027 0.030c14.121 15.733 345.997 388.315 345.997 642.092-0.248 204.709-166.13 370.59-370.815 370.838h-0.024zM370.838 20.549c-111.7 132.663-304.071 394.416-304.071 568.613 0 167.934 136.137 304.071 304.071 304.071s304.071-136.137 304.071-304.071v0c0-174.197-192.327-435.906-304.071-568.613zM370.838 775.736c-103.042 0-186.574-83.532-186.574-186.574s83.532-186.574 186.574-186.574c103.042 0 186.574 83.532 186.574 186.574v0c-0.124 102.992-83.582 186.45-186.562 186.574h-0.012zM370.838 469.355c-66.167 0-119.807 53.639-119.807 119.807s53.639 119.807 119.807 119.807c66.167 0 119.807-53.639 119.807-119.807v0c-0.074-66.137-53.669-119.732-119.799-119.807h-0.007z" />
<glyph unicode="&#xe913;" glyph-name="phone" d="M750.945 345.583c-68.264-68.264-68.264-136.528-136.528-136.528s-136.528 68.264-204.792 136.528-136.57 136.57-136.57 204.834 68.264 68.264 136.528 136.528-136.528 273.055-204.792 273.055-204.792-204.792-204.792-204.792c0-136.528 140.259-413.314 273.055-546.153s409.583-273.055 546.153-273.055c0 0 204.792 136.528 204.792 204.792s-204.792 273.055-273.055 204.792z" />
<glyph unicode="&#xe914;" glyph-name="search" d="M1003.136 56.832l-216.363 216.235c50.886 70.19 81.399 158.038 81.399 253.013 0 239.647-194.273 433.92-433.92 433.92-0.057 0-0.114 0-0.171 0h0.009c-239.755-0.024-434.109-194.378-434.133-434.13v-0.003c0-0.166 0-0.363 0-0.561 0-239.482 194.139-433.621 433.621-433.621 95.003 0 182.871 30.552 254.313 82.368l-1.257-0.868 216.405-216.448c12.868-13.182 30.814-21.357 50.669-21.357 39.093 0 70.784 31.691 70.784 70.784 0 19.855-8.175 37.801-21.342 50.655l-0.014 0.014zM227.243 318.976c-52.953 52.945-85.706 126.093-85.706 206.891 0 161.579 130.986 292.565 292.565 292.565s292.565-130.986 292.565-292.565c0-161.579-130.986-292.565-292.565-292.565-0.004 0-0.008 0-0.012 0h0.001c-0.223-0.001-0.486-0.001-0.749-0.001-80.543 0-153.436 32.752-206.087 85.664l-0.012 0.012z" />
<glyph unicode="&#xe915;" glyph-name="star" horiz-adv-x="1078" d="M538.947 136.876l333.069-200.876-88.129 378.815 294.007 254.987-387.568 33.242-151.38 356.956-151.38-357.171-387.568-33.027 294.007-254.771-88.129-379.031z" />
<glyph unicode="&#xe916;" glyph-name="steering-wheel" d="M511.978 960c-282.739-0.025-511.935-229.236-511.935-511.978 0-282.758 229.22-511.978 511.978-511.978s511.978 229.22 511.978 511.978v0c-0.025 282.763-229.255 511.978-512.022 511.978v0zM511.978 832.016c165.619-0.563 306.468-105.995 359.656-253.338l0.843-2.673h-720.998c54.031 150.016 194.88 255.448 360.431 256.011h0.068zM511.978 384.030c-35.342 0-63.992 28.65-63.992 63.992s28.65 63.992 63.992 63.992c35.342 0 63.992-28.65 63.992-63.992v0c0-0.013 0-0.028 0-0.044 0-35.342-28.65-63.992-63.992-63.992v0zM127.984 448.022c174.888 0 316.515-168.523 319.48-377.499-182.198 31.862-318.991 188.634-319.48 377.448v0.052zM576.493 70.522c2.964 208.976 144.592 377.499 319.48 377.499-0.489-188.866-137.282-345.637-317.178-377.165l-2.302-0.334z" />
<glyph unicode="&#xe917;" glyph-name="twitter" horiz-adv-x="1261" d="M1260.657 838.849c-43.243-19.702-93.406-34.035-146.013-40.457l-2.489-0.248c53.427 32.399 93.604 82.082 113.145 141.16l0.526 1.835c-47.31-28.498-102.357-50.272-160.981-62.208l-3.353-0.57c-47.308 50.125-114.198 81.33-188.376 81.33-142.944 0-258.822-115.879-258.822-258.822 0-20.673 2.424-40.78 7.003-60.052l-0.353 1.759c-215.457 11.081-404.986 113.438-532.071 268.847l-1.039 1.31c-21.985-37.254-34.974-82.085-34.974-129.951 0-89.345 45.254-168.12 114.092-214.654l0.915-0.583c-43.224 1.466-83.379 13.316-118.45 33.115l1.292-0.671v-3.212c0.057-124.713 88.295-228.801 205.743-253.297l1.682-0.293c-20.421-5.775-43.882-9.122-68.115-9.178h-0.032c-0.346-0.002-0.756-0.003-1.166-0.003-16.813 0-33.235 1.672-49.11 4.858l1.587-0.266c33.983-103.571 128.845-177.445 241.268-179.611l0.253-0.004c-87.246-68.892-198.808-110.506-320.090-110.506-0.402 0-0.804 0-1.206 0.001h0.062c-21.875 0.141-43.267 1.537-64.291 4.121l2.66-0.267c111.8-72.945 248.661-116.333 395.655-116.333 0.263 0 0.526 0 0.788 0h-0.041c475.747 0 735.762 394.016 735.762 735.762l-0.872 33.5c51.078 36.769 94.042 81.062 128.245 131.753l1.166 1.834z" />
<glyph unicode="&#xe918;" glyph-name="user" horiz-adv-x="1075" d="M535.844 385.325c158.521 0.243 286.933 128.804 286.933 287.358 0 158.704-128.655 287.359-287.359 287.359-158.554 0-287.116-128.412-287.358-286.91v-0.023c0.024-158.929 128.855-287.76 287.782-287.784h0.002zM535.844 884.978c117.011 0 211.868-94.857 211.868-211.868s-94.857-211.868-211.868-211.868c-117.011 0-211.868 94.857-211.868 211.868v0c0.362 116.865 95.002 211.506 211.833 211.868h0.035zM37.98-64.128h999.305c0.089-0.001 0.194-0.001 0.299-0.001 20.811 0 37.681 16.871 37.681 37.681 0 0.090 0 0.18-0.001 0.271v-0.014c-0.242 199.311-161.75 360.819-361.038 361.061h-353.165c-199.266-0.242-360.746-161.677-361.061-360.903v-0.030c-0.001-0.114-0.002-0.249-0.002-0.384 0-20.811 16.871-37.681 37.681-37.681 0.105 0 0.211 0 0.316 0.001h-0.016zM361.061 258.954h353.099c0.026 0 0.056 0 0.087 0 144.046 0 263.126-106.889 282.25-245.678l0.168-1.487h-918.109c19.558 140.195 138.513 246.981 282.472 247.293h0.033z" />
<glyph unicode="&#xe919;" glyph-name="wheel" d="M512 960c-282.695-0.099-511.826-229.291-511.826-512 0-282.77 229.23-512 512-512s512 229.23 512 512v0c-1.135 282.373-229.787 510.964-512.075 512h-0.099zM512 117.998c-182.255 0-330.002 147.747-330.002 330.002s147.747 330.002 330.002 330.002c182.255 0 330.002-147.747 330.002-330.002v0c-0.223-182.165-147.837-329.779-329.981-330.002h-0.022zM512.044 474.106c-14.442 0-26.149-11.707-26.149-26.149s11.707-26.149 26.149-26.149c14.442 0 26.149 11.707 26.149 26.149v0c0 14.442-11.707 26.149-26.149 26.149v0zM669.461 578.353l55.61 84.418c-36.070 36.688-81.578 63.986-132.593 77.963l-2.075 0.485-44.889-90.52h-66.985l-44.889 90.52c-53.090-14.462-98.598-41.759-134.627-78.406l-0.041-0.042 55.61-84.418-33.514-58.095-100.5 6.058c-6.401-23.538-10.078-50.563-10.078-78.447s3.677-54.91 10.574-80.617l-0.495 2.17 100.5 6.058 33.514-58.095-55.61-84.418c36.073-36.683 81.58-63.98 132.592-77.962l2.076-0.485 44.889 90.52h66.985l44.889-90.52c53.089 14.466 98.596 41.763 134.628 78.406l0.040 0.041-55.61 84.418 33.514 58.095 100.5-6.058c6.401 23.538 10.078 50.563 10.078 78.447s-3.677 54.91-10.574 80.617l0.495-2.17-100.5-6.058zM512 346.672c-0.246-0.002-0.537-0.003-0.828-0.003-55.962 0-101.328 45.366-101.328 101.328s45.366 101.328 101.328 101.328c55.961 0 101.326-45.364 101.328-101.324v0c0-0.091 0-0.199 0-0.306 0-55.61-44.932-100.725-100.472-101.021h-0.028z" />
<glyph unicode="&#xe91a;" glyph-name="youtube" horiz-adv-x="1455" d="M1398.36 872.105c-52.519 62.431-149.508 87.895-334.71 87.895h-672.239c-189.431 0-288.057-27.282-340.394-93.579-51.018-64.796-51.018-160.284-51.018-292.467v-251.908c0-256.045 60.521-386.046 391.412-386.046h672.239c160.602 0 249.589 22.463 307.155 77.573 59.066 56.475 84.257 148.735 84.257 308.473v251.908c0 139.368-3.956 235.447-56.702 298.151zM934.15 413.215l-305.29-159.557c-6.305-3.362-13.789-5.337-21.735-5.337-25.916 0-46.926 21.009-46.926 46.926 0 0.006 0 0.012 0 0.018v-0.001 318.067c0 0.004 0 0.010 0 0.015 0 25.916 21.009 46.926 46.926 46.926 7.909 0 15.362-1.957 21.899-5.413l-0.255 0.123 305.29-158.511c15.131-7.994 25.267-23.627 25.267-41.628s-10.136-33.635-25.012-41.505l-0.255-0.123z" />
<glyph unicode="&#xe91b;" glyph-name="whatsapp" horiz-adv-x="1019" d="M71.987 198.931c-42.58 72.672-67.724 160.031-67.724 253.263 0 280.24 227.179 507.419 507.419 507.419s507.419-227.179 507.419-507.419c0-280.233-227.168-507.407-507.398-507.419h-0.209c-88.9 0.001-172.455 22.882-245.099 63.076l2.604-1.322-268.999-70.559zM296.842 89.285c61.362-36.933 135.432-58.779 214.605-58.779 0.017 0 0.033 0 0.050 0h0.176c0.001 0 0.003 0 0.005 0 232.942 0 421.778 188.837 421.778 421.778s-188.837 421.778-421.778 421.778c-232.942 0-421.778-188.837-421.778-421.778 0-83.086 24.024-160.562 65.505-225.858l-1.019 1.717 10.025-15.944-42.597-155.635 159.621 41.883zM594.488 216.006c-29.677 9.244-53.633 18.331-76.948 28.605l4.664-1.833c-127.197 54.912-210.25 182.972-216.586 191.45-28.542 36.077-47.323 81.071-51.692 130.211l-0.068 0.943c-0.015 0.759-0.023 1.654-0.023 2.551 0 40.618 17.031 77.258 44.342 103.169l0.063 0.059c8.322 9.456 20.333 15.496 33.76 15.854l0.062 0.001c8.448 0 16.926 0 24.303-0.446 0.922 0 1.874 0 2.975 0 7.377 0 16.599 0 25.671-21.715 10.56-25.404 35.934-87.812 39.087-94.148 2.112-3.443 3.362-7.611 3.362-12.071 0-3.692-0.857-7.183-2.382-10.287l0.061 0.137c-3.434-8.085-7.686-15.058-12.795-21.304l0.122 0.154c-6.336-7.407-13.327-16.539-19.008-22.221-6.336-6.336-12.94-13.178-5.563-25.88 19.861-33.662 43.257-62.569 70.282-87.616l0.247-0.226c28.95-25.839 62.712-47.072 99.655-62.11l2.316-0.834c12.672-6.336 20.079-5.295 27.456 3.183s31.71 37.035 40.158 49.707 16.896 10.56 28.527 6.336 73.95-34.893 86.622-41.259 21.12-9.519 24.303-14.873c0.959-5.355 1.507-11.52 1.507-17.813 0-15.369-3.27-29.974-9.153-43.157l0.268 0.673c-18.785-30.64-49.083-52.663-84.731-60.147l-0.85-0.149c-9.211-1.502-19.86-2.387-30.706-2.439h-0.052c-0.205-0.001-0.448-0.001-0.691-0.001-17.336 0-34.032 2.742-49.678 7.817l1.138-0.319z" />
<glyph unicode="&#xe91c;" glyph-name="fuel" d="M939.805 719.36l0.853 0.853-211.912 211.341-60.301-60.301 120.035-120.035c-53.475-20.48-91.592-71.965-91.592-132.552 0-78.507 63.715-142.221 142.221-142.221 20.195 0 39.539 4.267 56.888 11.947v-410.168c0.003-31.291-25.597-56.891-56.885-56.891s-56.888 25.6-56.888 56.888v256c0 62.861-50.915 113.779-113.779 113.779h-56.888v398.221c-0.003 62.864-50.917 113.779-113.779 113.779h-341.333c-62.864 0-113.779-50.915-113.779-113.779v-910.221h568.888v426.667h85.333v-284.445c0-78.507 63.715-142.221 142.221-142.221s142.221 63.715 142.221 142.221v540.445c0.003 39.253-15.925 74.808-41.525 100.693zM497.779 561.779h-341.333v284.443h341.333v-284.443zM839.112 561.779c-31.288 0-56.888 25.6-56.888 56.888s25.6 56.888 56.888 56.888c31.288 0 56.888-25.6 56.888-56.888s-25.6-56.888-56.888-56.888z" />
</font>
</defs>
</svg>
